#TITLE:Heavy Rotation;
#SUBTITLE:Expi3nze;
#ARTIST:AKB48;
#TITLETRANSLIT:;
#SUBTITLETRANSLIT:;
#ARTISTTRANSLIT:;
#CREDIT:;
#BANNER:bn.png;
#BACKGROUND:bg.png;
#LYRICSPATH:;
#CDTITLE:cdtitle.png;
#MUSIC:Heavy Rotation.mp3;
#OFFSET:-0.040;
#SAMPLESTART:8.130;
#SAMPLELENGTH:24.607;
#SELECTABLE:YES;
#BPMS:0.000=178.002,2.000=89.001,2.667=356.076,3.000=355.980,4.000=89.001,4.667=356.076,5.000=355.980,6.000=89.001,6.333=356.004,7.000=89.001,7.333=356.004,8.000=89.001,8.333=356.004,9.000=89.001,9.333=356.004,10.000=178.002,15.000=177.990,16.000=178.002,21.000=177.990,22.000=178.002,24.000=89.001,24.333=356.004,25.000=89.001,25.333=356.004,26.000=178.002,31.000=177.990,32.000=178.002,37.000=177.990,38.000=178.002,43.000=177.990,44.000=178.002,49.000=177.990,50.000=178.002,55.000=177.990,56.000=178.002,58.000=89.001,58.333=356.004,59.000=178.002,60.000=89.001,60.333=356.004,61.000=178.002,66.000=89.001,66.333=356.004,67.000=178.002,68.000=89.001,68.333=356.004,69.000=178.002,74.000=89.001,74.333=356.004,75.000=178.002,76.000=89.001,76.333=356.004,77.000=178.002,78.000=89.001,78.333=356.004,79.000=178.002,80.000=89.001,80.333=356.004,81.000=89.001,81.333=356.004,82.000=178.002,87.000=177.990,88.000=178.002,93.000=177.990,94.000=178.002,99.000=177.990,100.000=178.002,105.000=177.990,106.000=178.002,110.000=356.028,110.250=89.007,110.375=178.014,110.500=356.028,110.750=89.007,110.875=178.014,111.000=356.028,111.250=89.007,111.375=178.014,112.000=178.002,113.000=177.990,114.000=178.002,119.000=177.990,120.000=178.002,125.000=177.990,126.000=178.002,130.000=177.990,131.000=178.002,136.000=177.990,137.000=178.002,142.000=89.001,142.333=356.004,143.000=89.001,143.333=356.004,144.000=178.002,149.000=177.990,150.000=178.002,155.000=177.990,156.000=178.002,160.000=177.990,161.000=178.002,166.000=177.990,167.000=178.002,172.000=177.990,173.000=178.002,178.000=89.001,180.000=88.998,181.000=89.001,183.000=88.998,184.000=89.001,186.000=178.002,191.000=177.990,192.000=178.002,194.000=89.001,194.333=356.004,195.000=178.002,196.000=89.001,196.333=356.004,197.000=178.002,200.000=89.001,200.333=356.004,201.000=178.002,206.000=177.990,207.000=178.002,212.000=177.990,213.000=178.002,217.000=177.990,218.000=178.002,223.000=177.990,224.000=178.002,229.000=177.990,230.000=178.002,234.000=89.001,234.333=356.004,235.000=178.002,236.000=89.001,236.333=356.004,237.000=178.002,242.000=177.990,243.000=178.002,248.000=177.990,249.000=89.001,249.333=356.004,250.000=178.002,255.000=177.990,256.000=178.002,261.000=177.990,262.000=178.002,266.000=177.990,267.000=178.002,271.000=89.001,271.333=356.004,272.000=89.001,272.333=356.004,273.000=89.001,275.000=88.998,276.000=89.001,278.000=88.998,279.000=89.001,281.000=88.998,282.000=89.001;
#STOPS:;
#BGCHANGES:;
// cache tags:
#FIRSTBEAT:2.000;
#LASTBEAT:282.000;
#SONGFILENAME:Songs/SDO pack 1/Heavy Rotation(AKB48)/Heavy Rotation.sm;
#HASMUSIC:1;
#HASBANNER:1;
#MUSICLENGTH:102.253;
// end cache tags

//---------------dance-single - ----------------
#NOTES:
     dance-single:
     :
     Hard:
     24:
     1.000,1.000,1.000,0.724,0.328,539.000,256.000,74.000,0.000,210.000:
0000
0000
1110
0000
,
0111
0000
1011
1101
,
1110
0000
0111
0000
1102
1100
0010
1100
,
0010
0010
1100
1100
0010
0010
1100
1100
,
0010
0000
1100
0013
0100
1000
0100
0010
1100
0000
0011
0000
1110
0000
0011
0000
,
1000
0000
0001
0000
1110
0000
0011
0000
1000
0001
1000
1000
0001
0001
0000
0000
,
2110
0000
3112
0000
1113
0001
0100
0010
,
1101
0010
1101
0010
1101
0010
0001
1000
,
0111
1000
0111
1000
0111
1000
0100
0001
,
1110
0001
1110
0001
1110
0001
0010
0100
,
1011
0100
1011
0100
1011
0100
1000
0001
,
1110
0001
1110
0001
1110
0001
0010
1000
,
0111
1000
0111
1000
0111
1000
0010
0001
,
1110
0001
0010
1000
0111
1000
0010
0001
,
1110
0001
1000
1000
0001
1000
0001
0001
1210
0000
0000
0000
1311
0000
0000
0000
,
1210
0000
1311
0000
0110
1000
0111
1000
,
0011
1000
0111
1000
0112
0000
1113
0000
,
0121
0000
1131
0000
0011
0100
1011
0100
,
0001
0000
0100
0000
1011
1000
0001
0001
2110
0000
0000
0000
3111
0000
0000
0000
,
1021
1131
2011
3111
,
0220
2332
3123
1001
,
1230
2311
3210
1321
,
1032
1123
1032
1123
,
1230
2311
3210
1321
,
1000
1132
0123
1100
,
1230
2311
3012
1123
,
1230
2311
3021
1231
,
2301
0000
3211
0000
1311
1011
1101
1102
,
0000
0000
1113
0000
0100
0001
1110
0001
,
0110
1000
0111
1000
0110
0001
1110
0011
,
0100
1000
0111
1000
0010
0100
1011
0100
,
0011
1000
0111
1000
0110
0001
1110
0011
,
1000
0001
1110
0001
1000
0010
0111
1000
,
0011
1000
0111
1000
0110
1000
0111
1000
,
0110
0001
1110
0001
0110
1000
0111
1000
,
0011
0110
1101
0010
2101
0000
3112
0000
,
1203
1000
0001
0001
1320
1000
0001
0001
1030
0000
0001
0000
1110
0000
0001
0000
,
0110
1000
0111
1000
0011
0100
1011
0110
,
0001
0010
1101
0010
0100
0010
1101
0010
,
1100
0001
1110
0001
1100
0001
1110
0011
,
0100
0010
1101
0010
0100
0010
1101
0010
,
1100
0010
1101
0010
1100
0001
1110
0001
,
0110
1000
0111
1000
0111
1000
0100
0001
,
1110
0001
1000
0100
1021
0100
0001
0100
,
1231
0000
0001
0001
1000
1000
0001
0001
2310
0000
0011
0100
0011
0000
0011
0000
,
3211
1000
0011
1000
0011
1000
0011
0000
1312
0000
1100
0010
1100
0000
1100
0000
,
1100
0010
2103
0001
0110
0001
0110
0000
3110
0000
0001
0000
1110
0000
0001
0000
,
0100
0010
1101
0010
1100
0001
1110
0001
,
0110
0000
1000
0000
0111
0000
1000
0000
0220
0000
0000
0000
1001
0000
0000
0330
,
2002
0000
0000
0000
0110
0000
0000
3003
1221
0000
1001
0000
1331
0000
0000
0000
,
1210
0000
0000
0000
1311
1000
0001
0001
1110
0000
0001
0000
0010
0000
0100
0000
,
1011
0100
1011
0100
1011
0100
0010
1000
,
0111
1000
0111
1000
0111
1000
0100
0010
,
1101
0010
1101
0010
1101
0010
1000
0100
,
1011
0100
1011
0100
1011
0100
0010
0001
,
1110
0001
1110
0001
1110
0001
0010
0100
,
1011
0100
1011
0100
1011
0100
1000
0100
,
1011
0100
0010
1000
0111
1000
0010
1000
,
0121
1000
0001
0001
1000
0001
1000
1000
0132
0000
0000
0000
1113
0000
0000
0000
,
2101
0000
3111
0000
1102
0010
1100
0010
,
1100
0010
1100
0010
2103
0001
0110
0001
,
0110
0001
0110
0001
3120
0001
1100
0001
,
1230
0010
1321
0000
0132
1000
0010
1000
,
0110
1000
0010
0010
1100
0010
1000
0010
1123
0001
1000
0001
1100
0001
1000
0001
,
1100
0001
1000
0001
1100
0001
1000
0001
2130
0000
0001
0000
0100
0000
0011
0000
,
0011
0100
0100
0011
3011
0011
0100
0011
,
0100
0000
0011
0000
0001
0010
1100
0010
1100
0010
1100
0010
0001
0010
1100
0010
,
0001
0010
1100
0010
0100
1000
0110
0001
0110
1000
0110
0001
1110
0000
0000
0000
,
1101
0000
0000
0000
0000
0000
0000
0000
0111
0000
0000
0000
1100
0010
0002
0000
0000
0000
0000
0000
0000
0000
2103
0000
0000
0000
0000
0000
3100
0010
2100
0000
,
0000
0000
3210
0000
0000
0000
0312
0000
0000
0000
0000
0000
0113
0000
0001
0010
0100
2000
0000
0000
0000
0000
0000
0000
0000
0000
0000
0000
0000
0000
0000
0000
,
0000
0000
3000
0000
;
